#TITLE:Seishoujo Ryouiki;
#SUBTITLE:- Rozen Maiden Tràumend Opening;
#ARTIST:ALI PROJECT;
#TITLETRANSLIT:;
#SUBTITLETRANSLIT:;
#ARTISTTRANSLIT:;
#CREDIT:Xion Steel;
#BANNER:Rozen Maiden.png;
#BACKGROUND:Rozen Maiden bg.png;
#LYRICSPATH:Rozen Maiden - Seishoujo Ryouiki.lrc;
#CDTITLE:SS credit logo.png;
#MUSIC:seishoujo_ryouiki.mp3;
#OFFSET:0.220;
#SAMPLESTART:83.220;
#SAMPLELENGTH:12.000;
#SELECTABLE:YES;
#BPMS:0.000=137.000;
#STOPS:;
#BGCHANGES:;
// cache tags:
#FIRSTBEAT:3.000;
#LASTBEAT:629.000;
#SONGFILENAME:songs/Otaku's Dream 3rd Anime Mix/[Xion Steel] Seishoujo Ryouiki - Rozen Maiden Traumend OP/Rozen Maiden - Seishoujo Ryouiki.sm;
#HASMUSIC:1;
#HASBANNER:1;
#MUSICLENGTH:280.633;
// end cache tags

//---------------dance-single - Blank----------------
#NOTES:
     dance-single:
     Blank:
     Challenge:
     10:
     0.981,1.000,1.000,0.955,0.467,1292.000,367.000,268.000,0.000,0.000:

0000
0000
0000
0000
0000
0000
2001
0100
,
0010
0001
3010
0120
1000
0130
0210
0001
,
0010
1300
0120
0001
1000
0031
0201
0010
,
0001
0000
0010
0000
0001
0000
0010
0000
0301
0000
1000
0000
0001
0000
0100
1000
,
0100
0010
0001
0010
0100
1000
0100
0000
0010
0000
0010
0000
2001
0000
0100
0000
,
0010
0100
3010
1200
0010
0301
0210
0010
,
0001
0310
0110
0100
1001
1000
1020
0001
,
1000
0001
1000
0001
1000
0031
0201
1000
,
0001
0000
1000
0000
0001
0000
1300
0000
0010
0000
0100
0000
0010
0100
0010
0200
,
0020
0000
0000
0000
0000
0000
0000
0000
0000
0330
0000
0000
0101
1000
0100
1000
,
0100
0001
0010
0001
0010
0000
1000
0001
1000
0000
1000
0100
0010
0000
0100
0010
,
0001
0000
0001
0010
1000
0010
0001
0010
1000
0000
1010
0000
0110
0000
0000
0000
,
1001
0010
1100
0000
0011
0001
1010
0110
,
0011
0000
1000
0100
0001
1000
0100
1000
0010
0000
0110
0000
0101
0000
0000
0000
,
0011
1000
1100
0000
0101
1001
0110
1001
,
1100
1010
1100
0011
1100
0001
0101
0000
,
1100
0000
1000
0000
1100
0000
0000
0000
0011
0000
0010
0000
1100
0000
0001
1000
,
0001
0000
0010
0000
0100
1000
0100
0010
0100
0000
1100
0000
1001
0000
0000
0010
,
0100
0000
1001
0000
0220
0000
0000
0000
0000
0000
0330
0000
1010
0000
0001
0010
,
0001
1000
2200
0000
0000
3300
0101
1000
,
1001
0000
0110
1000
0000
0000
0011
0000
0101
0000
1000
0000
0100
0000
1010
0000
,
0110
0000
0000
0100
0011
0000
1100
0000
0011
0000
0000
0000
1001
0000
0001
1000
,
0001
0000
1000
0001
1000
0000
0100
0010
1000
0000
0100
0010
0001
0000
0100
0001
,
0010
0000
0100
1000
0100
0000
0010
0001
0100
0000
0010
1000
0010
0000
0001
0100
,
1000
0000
0100
0010
0001
0000
0100
0001
1000
0000
0010
1000
0001
0000
0100
0010
,
1000
0000
0100
0010
0001
0000
0010
0100
0010
0000
0100
0010
1002
0000
0010
0100
,
0010
0000
0003
0000
0020
0000
0000
0030
0200
0000
0000
0000
0001
0000
1000
0000
0001
0000
0000
0000
0310
0000
0001
0000
0010
0000
0000
0000
0100
0000
0010
0000
,
0100
0000
0001
0100
1000
0000
0010
0001
1000
0000
0100
0010
2001
0000
0010
0100
,
0010
0000
0000
3000
0002
0000
0000
0003
0020
0000
0000
0000
1000
0000
0100
0000
1000
0000
0000
0000
0031
0000
0100
0000
0001
0000
0000
0000
1000
0000
0100
0000
,
0010
0000
0100
0010
0001
0000
0100
1000
0001
0000
0100
0010
0201
0000
1000
0001
,
1000
0000
0000
0300
0020
0000
0000
0030
0002
0000
0000
0000
0010
0000
0100
0000
0010
0000
0000
0000
0103
0000
1000
0000
0100
0000
0000
0000
1000
0000
0010
0000
,
0100
0000
0001
0010
0100
0000
0010
0100
1000
0000
0010
1000
0100
0000
0010
0001
,
1000
0000
0001
0100
0010
0000
0001
0010
0100
0000
0100
1000
0010
0000
1000
0001
,
1000
0000
0100
0010
0100
0000
1000
0010
0100
0000
0001
0010
2100
0000
0010
0001
,
0010
0000
0000
3000
2000
0000
0000
3000
0200
0000
0000
0000
0001
0000
1000
0000
0001
0000
0000
0000
0301
0000
1000
0000
0001
0000
0000
0000
0010
0000
0100
0000
,
0010
0000
1000
0100
0001
0000
0100
0010
1000
0000
0010
0100
0021
0000
0000
0000
,
0000
0030
0010
0100
2000
0000
0000
3000
2002
0000
0000
3000
2000
0000
0000
0000
,
0000
0000
0000
0003
0100
0000
0010
0000
0002
0000
0000
0000
0000
0000
0000
0003
0002
0000
0000
0000
3003
0000
0000
0000
1010
0000
0000
0000
1000
0000
0000
0000
,
1100
0000
1000
0000
1001
0000
1000
0000
1100
0000
1000
0000
1010
0001
0010
0100
,
1000
0100
0010
0001
0000
1000
0100
0010
1000
0100
0010
0000
1001
0000
0100
0000
,
1001
0000
0010
0000
1001
0000
0100
0000
1100
0000
0011
0000
0101
1000
0010
0100
,
1000
0010
0100
0010
0000
0001
0100
1000
0010
0100
0001
0000
1001
0000
0100
0000
,
0011
0000
1100
0000
1001
0000
0100
0010
0001
0100
1000
0000
1100
0000
0001
0000
,
0110
0000
1010
0000
1010
0000
0001
0100
0010
1000
0001
0000
2010
0000
0000
0000
,
0000
0000
0000
0000
0000
0000
0100
0010
0001
3000
1001
0000
0220
0000
0000
0300
,
1000
0000
0100
0000
0001
0000
0000
0000
1000
0000
0100
0000
0001
0100
1000
0100
,
0001
0100
1000
0130
0010
0000
0100
0010
0001
0000
0001
0010
0100
0000
0010
0100
,
1000
0000
1000
0100
0010
0001
0010
0100
0010
0000
0110
0000
0101
0000
0000
0000
,
1100
0000
0001
0000
0110
0000
0000
0000
1001
0000
1100
0000
0110
0000
0001
0100
,
0001
0000
0010
1000
0100
0001
1000
0010
0100
0000
1001
0000
0011
0000
0000
0000
,
0110
1000
0011
0000
1100
0110
1010
0011
,
0110
1001
1010
0101
1010
1001
0011
0000
,
1001
0000
0010
0000
0110
0000
0000
0000
1010
0000
0101
0000
1100
0000
0010
0001
,
0010
0000
0010
0100
1000
0100
1000
0010
0100
0000
0011
0000
0011
0000
0010
0100
,
1000
0000
0110
0000
2200
0000
0000
0000
0000
0000
3300
0000
1010
0000
0100
0010
,
1000
0000
1001
0000
0220
0000
0000
0000
0000
0000
0000
0330
1001
0000
1001
0000
,
1001
0000
0000
0000
0011
0000
0001
0000
0011
0000
0000
0100
1000
0000
1100
0000
,
0110
0000
0000
0000
1010
0000
0100
0000
1010
0000
0100
1000
0011
0000
0010
0000
,
0110
0000
1010
1010
1010
0000
2010
0000
,
0000
0000
0000
0000
0200
0000
0000
0300
0020
0000
0000
0030
0200
0000
0000
0300
0002
0000
0000
0000
0000
0000
0000
0003
3100
0000
0000
0000
0000
0000
0000
0000
,
1000
0100
0010
0001
1001
0000
0000
0000
0000
0000
0000
0000
0001
0100
1000
0000
,
1000
0000
0100
0000
0100
0000
0000
0000
0001
0000
0010
0000
1000
0001
1000
0000
,
0100
0000
0010
0000
1000
0000
0000
0000
1010
0000
0110
0000
2000
0000
0002
3000
,
0200
0003
0020
0300
2000
0030
0002
3000
0020
0003
0200
0330
2100
0000
0020
3030
,
0210
0000
0002
0303
2020
0000
0000
3030
0202
0000
0000
0303
1001
0000
0000
0000
,
1100
0000
0000
0010
1100
0000
0011
0000
1100
0000
0000
0000
0100
0000
1001
0000
,
1001
0000
0000
0010
1100
0000
0110
0000
0011
0000
0000
0000
1001
0000
1000
0100
,
0010
0000
0010
0100
1000
0000
0001
0010
0100
0000
0100
0001
0100
0000
1000
0010
,
0100
0000
0010
0001
1000
0000
0100
0010
0001
0000
1000
0100
0010
0000
0100
0001
,
1000
0000
0010
0100
0010
0000
1000
0100
0001
0000
0010
0001
0100
0000
0010
0100
,
1000
0000
0010
0001
1000
0000
0010
0100
0001
0000
0100
0010
1002
0000
1000
0100
,
0010
0000
0000
0003
0020
0000
0000
0030
2000
0000
0000
0000
0100
0000
0010
0000
0100
0000
0000
0000
3001
0000
0010
0000
0100
0000
0000
0000
0100
0000
0010
0000
,
1000
0000
0010
0100
0001
0000
0100
0010
0100
0000
1000
0100
0010
0000
0100
1000
,
0100
0000
0010
0001
0100
0000
0010
0001
1000
0000
0001
1000
0010
0000
0100
1000
,
0100
0000
0001
0100
0010
0000
1000
0100
0001
0000
1000
0100
2010
0000
0100
0010
,
0001
0000
0000
3000
0002
0000
0000
0003
0020
0000
0000
0000
1000
0000
0001
0000
1000
0000
0030
0000
0100
0000
0010
0000
0001
0000
0000
0000
1000
0000
0100
0000
,
0010
0000
0001
1000
0100
0000
0100
0001
0010
0000
1000
0010
0100
0000
0001
0010
,
0001
0000
0100
0010
1000
0000
0100
0010
1000
0000
0001
0010
0001
0000
1000
0001
,
1000
0000
0100
0010
0001
0000
1000
0100
0001
0000
0010
1000
0201
0000
0001
1000
,
0001
0000
0000
0300
2000
0000
0000
3000
0002
0000
0000
0000
0010
0000
0100
0000
0010
0000
0003
0000
0010
0000
1000
0000
0100
0000
0000
0000
0001
0000
1000
0000
,
0010
0000
0100
0001
1000
0000
0010
0001
0100
0000
1000
0000
0210
0000
0000
0000
,
0000
0000
0300
0000
1000
0000
0010
0000
0002
0000
0000
0000
0000
0000
0003
0000
0022
0000
0000
0000
0000
0000
0000
0030
2000
0000
0000
0000
0000
0000
0000
0000
,
0000
0003
0100
0010
0002
0000
0000
3003
0022
0000
0000
0033
1100
0000
0110
0000
,
0011
0000
1010
0000
0110
0000
0011
0000
1100
0000
0011
1000
0100
0022
0000
0000
,
0000
0000
0000
0033
1000
0100
0010
1000
0001
0100
0010
0000
1100
0000
0110
0000
,
1100
0000
1010
0000
0101
0000
1001
0000
0110
0000
0001
0100
2020
0000
0000
0000
,
0000
0000
3030
0001
1000
0010
0100
0001
1000
0010
0100
0000
1100
0000
1010
0000
,
0110
0000
0011
0000
2200
0000
0000
3300
0010
0001
1000
0100
0011
0000
0110
0000
,
1010
0000
0101
0000
2020
0000
0000
3030
0100
0001
1000
0100
2002
0000
0000
0000
,
0000
0000
0000
0000
3000
0000
1000
0100
0010
0003
1100
0000
0120
0000
0000
0000
,
1000
0000
0100
0000
0001
0000
0000
0000
0001
0000
0100
0000
1000
0100
1000
0100
,
1000
0001
1000
0001
1000
0000
1000
0100
0001
0030
0001
0100
1000
0000
0100
0010
,
0001
0000
1000
0100
0010
0100
0001
1000
0010
0000
1001
0000
1100
0000
0000
0000
,
0101
0000
0110
0000
1100
0000
0000
0000
1001
0000
1100
0000
0011
0000
0100
1000
,
0100
0000
0001
0100
1000
0001
1000
0010
1000
0000
0110
0000
1010
0000
0000
0000
,
1001
0010
1010
0000
1100
0011
0110
1010
,
0101
1001
1100
0011
1010
1001
0110
0000
,
0101
0000
0010
0000
0110
0000
0000
0000
0101
0000
1100
0000
0011
0000
1000
0001
,
1000
0000
0100
0010
1000
0001
1000
0100
0001
0000
1010
0000
0101
0000
0010
1000
,
0001
0000
1001
0000
0202
0000
0000
0000
0303
0000
1100
0000
0011
0000
0001
1000
,
0010
1001
2020
0000
0000
3030
0110
1001
,
0110
0000
0000
0000
1100
0000
0001
0000
1100
0000
0010
0001
1010
0000
0110
0000
,
0101
0000
0000
0000
0101
0000
0010
0000
1010
0000
1000
0100
0001
0000
1010
0000
,
0101
0000
0110
1100
0110
0000
1020
0000
,
0000
0000
0000
0000
2000
0000
0000
3000
0200
0000
0000
0300
0002
0000
0000
0003
2000
0000
0000
0000
0000
0000
0000
3000
0200
0000
0000
0000
0000
0000
0300
0000
,
1000
0000
0100
0000
0001
0000
0030
0000
2002
0000
0000
0000
0000
0000
0000
0000
0000
0000
0000
3003
0022
0000
0000
0030
0200
0000
0000
0303
0020
0000
0000
0000
,
2000
0000
0000
0000
0000
0000
0000
0000
0000
0000
0000
3000
0002
0000
0000
0003
2000
0000
0000
3000
0002
0000
0000
0033
0200
0000
0000
0000
0000
0000
0000
0000
,
0020
0000
0000
0000
0000
0000
0000
0030
2000
0000
0000
0000
0000
0000
3000
0000
1300
0000
0100
0000
0010
0000
0100
0000
1002
0000
0000
0003
2000
0000
0000
3000
,
0020
0000
0000
0000
0000
0000
0000
0030
0210
0000
0000
0300
0020
0000
0000
0030
2000
0000
0000
3000
0002
0000
0000
0003
1020
0000
0002
0000
0000
0000
0000
0003
,
2000
0000
0000
0000
0000
0000
0000
3000
0200
0000
0000
0000
0000
0000
0000
0300
0002
0000
0000
0000
0000
0000
0000
0033
2000
0000
0000
3000
0020
0000
0000
0030
,
0200
0000
0000
0000
0000
0000
0000
0300
1002
0000
0000
0003
0020
0000
0000
0030
0200
0000
0000
0300
0020
0000
0000
0030
2010
0000
0000
0000
0200
0000
0000
0300
,
0020
0000
0000
0030
0200
0000
0000
0300
0002
0000
0000
0000
0000
0000
0000
0003
0020
0000
0000
0000
0000
0000
0000
3030
2010
0000
0000
3000
0200
0000
0000
0300
,
0002
0000
0000
0000
0000
0000
0000
0003
1020
0000
0000
0030
0200
0000
0000
0300
2000
0000
0000
3000
0002
0000
0000
0003
0120
0000
0000
0000
2000
0000
0000
3000
,
0002
0000
0000
0003
0002
0000
0000
0003
2000
0000
0000
3000
0200
0000
0000
0300
0002
0000
0000
0000
0000
0000
0000
0033
2000
0000
0000
3000
0200
0000
0000
0300
,
0020
0000
0000
0030
0000
0000
0000
0000
0200
0000
0000
0300
0020
0000
0000
0030
0002
0000
0000
0003
0020
0000
0000
0030
0202
0000
0000
0000
0000
0000
0000
0000
,
0000
0000
0000
0303
2020
0000
0000
0000
0000
0000
0000
3030
2020
3030
0202
0303
,
2020
0000
0000
0000
0000
0000
3030
0000
2100
0000
0000
3000
0102
0000
0000
0003
0120
0000
0000
0030
2100
0000
0000
3000
0102
0000
0000
0000
0020
0000
0000
0030
,
0200
0000
0000
0000
0000
0000
0000
0300
2000
0000
0000
3000
0200
0000
0000
0300
0020
0000
0000
0030
0200
0000
0000
0300
2003
0000
0000
3000
0020
0000
0000
0030
,
0002
0000
0000
0000
0000
0000
0000
0003
2000
0000
0000
3000
0020
0000
0000
0030
2000
0000
0000
3000
0002
0000
0000
0003
1200
0000
0000
0000
2000
0000
0000
3000
,
0020
0000
0000
0000
0000
0000
0000
0030
0002
0000
0000
0003
0020
0000
0000
0030
0002
0000
0000
0003
2000
0000
0000
3300
0002
0000
0000
0003
0020
0000
0000
0030
,
2000
0000
0000
0000
0000
0000
0000
3000
0200
0000
0000
0300
0002
0000
0000
0003
2000
0000
0000
3000
0002
0000
0000
0003
0220
0000
0000
0000
0000
0000
0000
0000
,
0000
0000
0000
0000
0000
0000
0000
0000
0000
0330
0000
0000
2020
0000
0000
0000
0000
0000
0000
0000
0000
0000
0000
0000
0000
0000
0000
0000
0000
0000
0000
0000
0000
3030
0000
0000
0202
0000
0000
0000
0303
0000
0220
0000
0000
0000
0330
0000
,
2200
0000
0000
0000
0000
0000
0000
0000
0000
0000
0000
0000
0000
0000
0000
0000
3300
0000
0000
0000
0000
0000
0000
0000
0202
0000
0000
0000
0000
0000
0000
0000
0000
0000
0000
0000
0000
0000
0000
0000
0303
0000
0000
0000
0000
0000
0000
0000
0220
0000
0000
0000
0000
0000
0000
0000
0000
0000
0000
0000
0000
0000
0000
0000
0000
0000
0000
0000
0000
0000
0000
0000
0000
0000
0000
0000
0000
0000
0000
0000
0000
0000
0000
0000
0000
0000
0000
0000
0000
0000
0330
0000
0000
0000
0000
0000
2002
0000
0000
0000
0000
0000
0000
0000
0000
0000
0000
0000
0000
0000
0000
0000
0000
0000
0000
0000
0000
0000
0000
0000
0000
0000
0000
0000
0000
0000
0000
0000
0000
0000
0000
0000
0000
0000
0000
0000
0000
0000
3003
0000
0000
0000
0000
0000
0220
0000
0000
0000
0000
0000
0000
0000
0000
0000
0000
0000
0000
0000
0000
0000
0000
0000
0000
0000
0000
0000
0000
0000
0000
0000
0000
0000
0000
0000
0000
0000
0000
0000
0000
0000
0000
0000
0000
0000
0000
0000
0330
0000
0000
0000
0000
0000
,
2002
0000
0000
0000
0000
0000
0000
3003
2020
0000
0000
0000
0000
0000
3030
0000
0022
0000
0000
0000
0000
0000
0033
0000
0002
0000
0000
0000
0000
0000
0000
0003
,
0020
0000
0000
0030
0200
0000
0000
0300
2000
0000
0000
0000
0000
0000
0000
3000
1000
0000
0000
0000
0100
0000
0000
0000
0010
0000
0100
0000
1000
0000
0100
0000
,
1000
0010
0001
0100
0010
0000
0010
0100
1000
0000
0001
0010
0100
0000
0010
0100
,
1000
0000
0100
1000
0001
0100
0010
1000
0100
0000
1001
0000
1100
0000
0000
0000
,
0110
0000
0001
0000
1010
0000
0000
0000
0011
0000
1010
0000
0101
0000
0010
1000
,
0010
0000
0010
1000
0001
1000
0100
0010
1000
0000
0011
0000
0011
0000
0000
0000
,
1100
0010
0101
0000
1010
0101
0110
1100
,
0011
1001
1010
1010
0110
1001
0011
0000
,
0110
0000
1000
0000
0110
0000
0000
0000
0011
0000
1100
0000
1100
0000
0010
0001
,
0010
0100
1000
0000
1000
0010
0100
0001
1000
0000
0110
0000
1010
0000
0100
0010
,
0001
0000
1001
0000
0202
0000
0000
0000
0000
0000
0000
0303
1010
0000
0001
0010
,
0001
0000
1100
0000
2200
0000
0000
0000
0000
3300
0110
0000
1010
0000
0000
0000
,
0011
0000
0100
0000
0110
0000
0000
0000
0110
0000
1100
0000
1010
0000
0100
1000
,
0010
0000
0001
0010
0001
0010
0100
0010
1000
0000
0101
0000
1001
0000
0000
0000
,
0110
0001
1001
0000
1001
1100
0110
1001
,
0101
1010
0110
1001
0110
0101
1010
0000
,
1100
0000
0010
0000
0011
0000
0000
0000
0110
0000
0101
0000
1010
0000
0100
0010
,
0100
0000
1000
0001
0100
0010
1000
0100
1000
0000
0011
0000
0110
0000
0001
0010
,
1000
0000
1010
0000
2200
0000
0000
0000
0000
0000
0000
3300
0011
0000
1000
0100
,
0001
0110
2002
0000
0000
3003
1100
0011
,
1100
0000
0000
0000
0011
0000
0100
0000
0110
0000
1000
0100
0011
0000
0011
0000
,
0011
0000
0000
0000
0110
0000
0100
0000
1100
0000
0001
1000
0110
0000
0110
0000
,
0110
0000
1100
0110
0011
0000
2010
0000
,
0000
0100
0010
0001
0010
3000
1010
0000
,
0100
0000
0010
0000
1000
0000
0010
0000
0201
0000
0000
0000
0000
0000
0000
0000
0000
0000
0000
0000
2000
0000
0000
3000
0020
0000
0000
0030
0002
0000
0000
0303
,
0020
0000
0000
0000
0000
0000
0000
0000
0000
0000
0000
0000
2000
0000
0000
3000
0200
0000
0000
0300
2000
0000
0000
3030
0002
0000
0000
0000
0000
0000
0000
0000
,
2000
0000
0000
0000
0000
0000
0000
3000
0200
0000
0000
0000
0000
0000
0000
0300
0010
0000
0100
0000
1003
0000
0100
0000
0020
0000
0000
0000
0000
0000
0000
0000
,
0000
0000
0000
0000
0002
0000
0000
0003
0200
0000
0000
0300
2000
0000
0000
3030
0201
0000
0000
0000
0000
0000
0000
0000
0000
0000
0000
0000
2000
0000
0000
3000
,
0020
0000
0000
0030
0002
0000
0000
0303
1020
0000
0000
0000
0000
0000
0000
0030
0200
0000
0000
0000
0000
0000
0000
0300
0002
0000
0000
0000
0000
0000
0000
0000
,
1000
0100
0013
0001
1001
0000
0001
0000
0010
0001
0100
0000
1001
0000
0010
0000
,
0100
0000
1000
0000
0001
0000
0000
0000
2002
0000
0000
0000
0000
0000
0000
3003
0220
0000
0000
0000
0000
0000
0000
0330
1002
0000
0000
0000
0000
0000
0000
0000
,
0010
1000
0100
0000
,
0000
0000
0000
0000
0000
0000
0000
0000
0100
0000
0000
0000
0000
0000
0000
0000
0010
0000
0000
0000
0000
0000
0000
0003
2020
0000
0000
0000
0000
0000
0000
0000
,
0000
0000
0000
0000
,
0000
3030
0000
0000
;
